Skip to main content

Dawes Live at High Noon Saloon on 2009-10-24

Audio Preview

etree
Dawes Live at High Noon Saloon on 2009-10-24

by Dawes



01. That Western Skyline
02. When You Call My Name
03. Love Is All I Am
04. When My Time Comes
05. My Way Back Home
06. My Girl To Me *
07. Peace In The Valley w/ extendo jam *
08. How Far We’ve Come

* Patrick Breiner from Langhorne Slim's band on tenor sax


Collection Dawes
Band/Artist Dawes
Venue High Noon Saloon
Location Madison WI USA

Source Allen & Heath GL3300 SBD > Sony PCM-M1 > DAT + Neumann KM140’s > MV100 > -11dB attenuator cable > H2 (mic pads set at -10dB) > WAV @24-bit/48kHz (clamped on ctr post, ~8' high)
Lineage WAV > Audacity 1.2.6a > ran change speed on H2 audience tracks at +0.013% > mix > 24/48 > Dither to 16/44.1 > xACT 1.64 > FLAC level 8 * Lch & Rch reversed on audience master, not corrected for tracking.
Taped by morst
Transferred by morst

Notes

Dawes & Corey Hart opened for Langhorne Slim

Links:
www.dawestheband.com
myspace.com/dawestheband
www.high-noon.com

FoH audio: John (HNS)

SHNTOOL:
length expanded size cdr WAVE problems fmt ratio filename
5:33.64 58891772 B --- -- ---xx Dawes2009-10-24t00.flac
6:02.33 63934460 B --- -- ---xx Dawes2009-10-24t01.flac
4:28.24 47331692 B --- -- ---xx Dawes2009-10-24t02.flac
5:23.40 57071324 B --- -- ---xx Dawes2009-10-24t03.flac
5:03.30 53519804 B --- -- ---xx Dawes2009-10-24t04.flac
6:54.73 73201340 B --- -- ---xx Dawes2009-10-24t05.flac
5:26.14 57539372 B --- -- ---xx Dawes2009-10-24t06.flac
10:15.03 108493100 B --- -- ---xx Dawes2009-10-24t07.flac
3:42.15 39196124 B --- -- ---xx Dawes2009-10-24t08.flac
52:49.71 559178988 B 0.5194 (9 files)

~=~=~=~=~=~=~=~=~=~=~=~=~=~=~=~=~=~=~=~=~=~=~=~=~
The Soundscape Preservation Society (Founded 1991)
http://www.iamtypingwithonefinger.com/SPS.html
~=~=~=~=~=~=~=~=~=~=~=~=~=~=~=~=~=~=~=~=~=~=~=~=~

comment
Reviews

There are no reviews yet. Be the first one to write a review.
SIMILAR ITEMS (based on metadata)
Dawes
by Dawes
etree
eye 722
favorite 1
comment 0
Source: Mackie SBD > Sony PCM-M1 > DAT + Neumann KM140’s > MV100 > -11dB attenuator cable > H2 (mic pads set at -10dB) > WAV @24-bit/48kHz (ORTF on stand, rt of center, 9' high)
Dawes
by Dawes
etree
eye 757
favorite 1
comment 0
Source: [SBD] + [AK40 (ORTF, ~7' high @ SBD) > LC3 > KM100 > Aerco MP-2] >> R-44 (Oade CM) >> WAV @ 24bit/44.1KHz
Dawes
etree
eye 1,306
favorite 1
comment 0
Source: Neumann KM140's (ORTF with windscreens on stand, right side, back of main floor) > Beyer MV100 > M-Audio Microtrack II > WAV @24-bit/48kHz + Soundcraft Spirit 8 SBD > Zoom H2 > WAV @24-bit/48kHz
Dawes
etree
eye 2,979
favorite 3
comment 1
favoritefavoritefavoritefavoritefavorite ( 1 reviews )
Source: Mackie SBD tape outs > Sony PCM-M1 > DAT @16/48 Neumann KM140's > Beyer MV100 > M-Audio Microtrack II > WAV @24/48
Cracker
by Cracker
etree
eye 386
favorite 1
comment 1
favoritefavoritefavoritefavoritefavorite ( 1 reviews )
Source: SBD + Audience 4-channel post-production matrix mix
Dawes
etree
eye 398
favorite 1
comment 0
Source: Neumann KM140's (ORTF with windscreens on stand, right side, back of main floor) > Beyer MV100 > M-Audio Microtrack II > WAV @24-bit/48kHz + Soundcraft Spirit 8 SBD > Zoom H2 > WAV @24-bit/48kHz
Sky Road Fly
by Sky Road Fly
etree
eye 313
favorite 1
comment 0
Source: Allen & Heath 3300GL SBD > Sony PCM-M1 > DAT @16/48 Neumann KM140's > Beyer MV100 > Zoom H2 > WAV @24/48
Dawes
etree
eye 377
favorite 0
comment 0
Source: Mackie SBD tape outs > Sony PCM-M1 > DAT @16/48 Neumann KM140's > Beyer MV100 > M-Audio Microtrack II > WAV @24/48
Cracker
by Cracker
etree
eye 788
favorite 2
comment 5
favoritefavoritefavoritefavoritefavorite ( 5 reviews )
Source: SBD + AUD mix
Backyard Tire Fire
by Backyard Tire Fire
etree
eye 2,038
favorite 1
comment 0
Source: SBD + Audience post-matrix